<?xml version="1.0" encoding="UTF-8" standalone="no"?>
<!-- Creator: CorelDRAW X7 -->

<svg
   xml:space="preserve"
   width="36mm"
   height="11.456069mm"
   version="1.1"
   style="clip-rule:evenodd;fill-rule:evenodd;image-rendering:optimizeQuality;shape-rendering:geometricPrecision;text-rendering:geometricPrecision"
   viewBox="0 0 3600 1145.6069"
   id="svg229"
   sodipodi:docname="symbol_zener_tvs-asymmetric.svg"
   inkscape:version="1.4.2 (f4327f4, 2025-05-13)"
   xmlns:inkscape="http://www.inkscape.org/namespaces/inkscape"
   xmlns:sodipodi="http://sodipodi.sourceforge.net/DTD/sodipodi-0.dtd"
   xmlns="http://www.w3.org/2000/svg"
   xmlns:svg="http://www.w3.org/2000/svg"><sodipodi:namedview
   id="namedview229"
   pagecolor="#ffffff"
   bordercolor="#000000"
   borderopacity="0.25"
   inkscape:showpageshadow="2"
   inkscape:pageopacity="0.0"
   inkscape:pagecheckerboard="0"
   inkscape:deskcolor="#d1d1d1"
   inkscape:document-units="mm"
   inkscape:zoom="1"
   inkscape:cx="-57"
   inkscape:cy="381.5"
   inkscape:window-width="1920"
   inkscape:window-height="1137"
   inkscape:window-x="-8"
   inkscape:window-y="418"
   inkscape:window-maximized="1"
   inkscape:current-layer="Ebene_x0020_1" />
 <defs
   id="defs35">
  <font
   id="FontID0"
   horiz-adv-x="599"
   font-variant="normal"
   style="fill-rule:nonzero"
   font-style="normal"
   font-weight="400"
   horiz-origin-x="0"
   horiz-origin-y="0"
   vert-origin-x="512"
   vert-origin-y="768"
   vert-adv-y="1024">
	<font-face
   font-family="Tahoma"
   id="font-face1">
		<font-face-src>
			<font-face-name
   name="Tahoma" />
		</font-face-src>
	</font-face>
   <missing-glyph
   id="missing-glyph1"><path
     d="M0 0z"
     id="path1" /></missing-glyph>
   <glyph
   unicode="D"
   horiz-adv-x="678"
   d="M646 363c0,-67 -13,-126 -40,-180 -27,-53 -63,-95 -108,-125 -37,-23 -74,-39 -112,-46 -38,-8 -86,-12 -145,-12l-167 0 0 727 165 0c68,0 122,-5 161,-15 38,-11 71,-25 99,-43 47,-30 83,-72 108,-123 26,-51 39,-112 39,-183zm-101 1c0,56 -9,104 -28,143 -18,40 -46,70 -82,92 -25,16 -53,27 -82,34 -29,7 -65,10 -109,10l-73 0 0 -559 73 0c43,0 80,3 113,10 32,7 61,20 87,38 34,23 59,53 76,91 17,38 25,85 25,141z"
   id="glyph1" />
   <glyph
   unicode="w"
   horiz-adv-x="742"
   d="M727 545l-138 -545 -85 0 -133 420 -132 -420 -85 0 -139 545 95 0 97 -422 129 422 75 0 133 -422 91 422 92 0z"
   id="glyph2" />
   <glyph
   unicode="3"
   horiz-adv-x="545"
   d="M249 658c-17,0 -35,-2 -53,-6 -17,-5 -35,-10 -51,-17 -16,-7 -30,-14 -41,-21 -12,-7 -22,-14 -31,-20l-6 0 0 103c21,11 50,22 86,31 37,9 71,14 104,14 33,0 62,-3 86,-10 25,-7 47,-17 67,-31 21,-16 38,-34 49,-56 10,-23 16,-48 16,-78 0,-40 -13,-75 -40,-105 -26,-31 -58,-50 -94,-58l0 -7c15,-3 31,-8 49,-15 17,-7 33,-18 48,-32 15,-14 27,-32 37,-54 9,-22 14,-48 14,-80 0,-33 -6,-63 -17,-91 -11,-27 -27,-52 -47,-73 -22,-22 -47,-39 -77,-50 -30,-11 -64,-17 -102,-17 -37,0 -73,4 -109,13 -36,9 -65,19 -90,32l0 103 7 0c20,-15 48,-30 82,-43 35,-14 70,-21 104,-21 20,0 40,3 60,9 20,7 37,17 50,32 13,14 23,30 30,47 7,17 10,39 10,66 0,26 -4,48 -12,65 -7,17 -18,30 -32,40 -13,10 -29,17 -48,20 -19,4 -40,6 -61,6l-42 0 0 81 32 0c44,0 80,10 108,31 27,21 41,51 41,91 0,18 -3,34 -11,47 -7,13 -16,24 -27,31 -12,9 -26,15 -41,18 -15,3 -31,5 -48,5z"
   id="glyph3" />
   <glyph
   unicode="c"
   horiz-adv-x="461"
   d="M283 -12c-38,0 -72,6 -103,17 -32,12 -59,29 -81,53 -23,23 -40,53 -53,88 -12,36 -18,78 -18,126 0,48 6,89 19,124 13,35 30,64 52,88 21,24 48,42 80,55 32,13 67,19 104,19 30,0 59,-4 86,-13 28,-8 53,-18 75,-29l0 -103 -5 0c-7,5 -15,12 -26,19 -10,7 -22,14 -37,22 -13,6 -28,12 -45,17 -17,4 -34,7 -50,7 -47,0 -86,-18 -115,-54 -28,-36 -43,-86 -43,-152 0,-64 14,-114 42,-150 28,-36 66,-54 116,-54 30,0 59,6 86,19 27,12 51,28 72,47l5 0 0 -103c-9,-4 -21,-9 -34,-15 -14,-7 -26,-11 -37,-14 -16,-4 -30,-8 -42,-10 -13,-3 -29,-4 -48,-4z"
   id="glyph4" />
   <glyph
   unicode="t"
   horiz-adv-x="334"
   d="M231 -11c-50,0 -89,14 -117,43 -28,28 -42,73 -42,134l0 302 -62 0 0 77 62 0 0 157 92 0 0 -157 169 0 0 -77 -169 0 0 -259c0,-28 1,-49 1,-64 1,-15 5,-29 12,-42 5,-11 14,-20 27,-25 12,-6 29,-9 50,-9 15,0 29,2 43,7 14,4 24,8 31,11l5 0 0 -82c-17,-5 -35,-9 -53,-12 -17,-3 -34,-4 -49,-4z"
   id="glyph5" />
   <glyph
   unicode="n"
   horiz-adv-x="557"
   d="M495 0l-92 0 0 310c0,26 -1,49 -4,71 -2,21 -7,39 -14,51 -7,14 -18,24 -31,31 -13,7 -31,10 -54,10 -23,0 -47,-6 -71,-18 -24,-13 -48,-28 -71,-48l0 -407 -92 0 0 545 92 0 0 -61c27,25 54,44 81,57 27,12 55,19 85,19 53,0 95,-18 126,-53 30,-35 45,-86 45,-153l0 -354z"
   id="glyph6" />
   <glyph
   unicode="L"
   horiz-adv-x="497"
   d="M496 0l-422 0 0 727 97 0 0 -641 325 0 0 -86z"
   id="glyph7" />
   <glyph
   unicode="k"
   horiz-adv-x="498"
   d="M519 0l-120 0 -204 263 -37 -35 0 -228 -92 0 0 760 92 0 0 -445 217 230 114 0 -224 -228 254 -317z"
   id="glyph8" />
   <glyph
   unicode="h"
   horiz-adv-x="557"
   d="M495 0l-92 0 0 310c0,26 -1,49 -4,71 -2,21 -7,39 -14,51 -7,14 -18,24 -31,31 -13,7 -31,10 -54,10 -23,0 -47,-6 -71,-18 -24,-13 -48,-28 -71,-48l0 -407 -92 0 0 760 92 0 0 -276c27,25 54,44 81,57 27,12 55,19 85,19 53,0 95,-18 126,-53 30,-35 45,-86 45,-153l0 -354z"
   id="glyph9" />
   <glyph
   unicode="e"
   horiz-adv-x="526"
   d="M303 -12c-87,0 -155,24 -203,73 -48,49 -72,119 -72,209 0,88 23,159 70,211 46,53 107,79 183,79 34,0 64,-5 90,-15 26,-9 49,-25 68,-46 20,-20 35,-46 45,-76 11,-30 16,-67 16,-110l0 -50 -379 0c0,-63 16,-112 48,-145 32,-33 76,-50 133,-50 20,0 40,2 59,7 20,4 37,10 53,18 17,7 31,14 42,21 12,7 21,14 29,20l5 0 0 -100c-11,-4 -24,-10 -40,-16 -16,-6 -30,-11 -43,-15 -18,-5 -34,-9 -49,-11 -14,-3 -33,-4 -55,-4zm108 345c-1,25 -4,46 -9,64 -5,18 -13,33 -22,45 -11,14 -25,24 -42,31 -17,7 -38,11 -62,11 -25,0 -46,-4 -63,-11 -17,-7 -33,-18 -47,-32 -14,-14 -24,-30 -31,-47 -8,-18 -12,-38 -14,-61l290 0z"
   id="glyph10" />
   <glyph
   unicode="2"
   horiz-adv-x="545"
   d="M501 0l-448 0 0 102c32,31 63,60 91,88 29,28 57,57 84,88 56,61 93,109 114,146 20,37 30,74 30,113 0,21 -3,38 -9,54 -7,15 -16,28 -27,38 -11,9 -24,17 -39,22 -15,5 -32,7 -50,7 -17,0 -34,-2 -52,-7 -18,-4 -35,-9 -51,-16 -14,-5 -27,-12 -40,-20 -12,-8 -23,-15 -31,-20l-5 0 0 103c20,10 48,20 84,30 36,9 70,14 102,14 68,0 121,-18 160,-54 38,-36 57,-85 57,-146 0,-28 -3,-54 -10,-79 -7,-24 -16,-46 -27,-66 -12,-21 -27,-43 -44,-63 -17,-21 -35,-41 -53,-62 -31,-33 -65,-67 -103,-103 -37,-36 -67,-64 -90,-85l357 0 0 -84z"
   id="glyph11" />
   <glyph
   unicode="s"
   horiz-adv-x="446"
   d="M214 -12c-37,0 -70,5 -102,15 -32,9 -58,20 -79,31l0 103 5 0c8,-6 17,-13 27,-21 11,-7 25,-15 42,-23 16,-8 33,-14 52,-20 18,-5 37,-8 57,-8 15,0 30,2 47,5 16,3 29,8 37,13 11,8 19,16 24,24 6,9 8,22 8,38 0,22 -6,39 -17,50 -12,11 -33,20 -63,28 -11,3 -27,6 -46,10 -19,4 -36,8 -52,12 -42,12 -72,31 -91,56 -18,25 -28,56 -28,92 0,49 19,89 56,120 37,31 86,46 147,46 31,0 61,-4 92,-11 30,-8 56,-17 77,-29l0 -98 -5 0c-23,19 -49,34 -78,45 -29,11 -57,16 -87,16 -30,0 -55,-6 -76,-19 -21,-13 -31,-32 -31,-58 0,-23 6,-40 18,-51 12,-11 32,-20 59,-28 13,-3 29,-7 45,-10 17,-4 35,-7 54,-12 40,-10 70,-27 90,-50 21,-24 31,-56 31,-96 0,-23 -5,-46 -14,-66 -9,-21 -23,-39 -41,-54 -19,-17 -41,-29 -66,-37 -24,-9 -55,-13 -92,-13z"
   id="glyph12" />
   <glyph
   unicode="/"
   horiz-adv-x="382"
   d="M355 760l-285 -918 -82 0 284 918 83 0z"
   id="glyph13" />
   <glyph
   unicode="_"
   horiz-adv-x="545"
   d="M554 -146l-562 0 0 63 562 0 0 -63z"
   id="glyph14" />
   <glyph
   unicode="p"
   horiz-adv-x="552"
   d="M525 287c0,-91 -22,-163 -65,-217 -44,-54 -99,-81 -166,-81 -27,0 -51,3 -72,9 -21,6 -42,16 -64,29l0 -228 -92 0 0 746 92 0 0 -57c23,20 48,38 76,51 28,14 59,21 91,21 63,0 112,-25 147,-74 36,-50 53,-116 53,-199zm-95 -10c0,62 -10,110 -30,144 -20,35 -52,52 -97,52 -26,0 -51,-6 -76,-17 -24,-12 -47,-27 -69,-45l0 -309c24,-12 45,-20 62,-24 17,-4 37,-6 59,-6 48,0 85,17 111,52 27,35 40,86 40,153z"
   id="glyph15" />
   <glyph
   unicode="~"
   horiz-adv-x="727"
   d="M663 452c-1,-33 -4,-65 -10,-96 -7,-30 -16,-58 -30,-82 -13,-24 -30,-44 -50,-59 -20,-15 -45,-22 -77,-22 -19,0 -36,2 -51,7 -14,6 -28,12 -39,20 -11,8 -22,18 -33,30 -10,11 -19,22 -28,32 -8,10 -17,21 -26,32 -8,11 -16,21 -24,30 -9,9 -18,16 -28,22 -10,5 -21,8 -33,8 -16,0 -30,-4 -41,-13 -11,-9 -19,-21 -27,-38 -7,-17 -12,-36 -14,-59 -3,-23 -5,-46 -6,-71l-81 0c1,34 4,66 11,97 6,31 15,58 28,82 13,24 31,44 52,58 21,15 47,22 76,22 20,0 37,-3 52,-8 15,-5 28,-12 39,-20 12,-8 22,-17 32,-28 10,-10 19,-21 28,-32 7,-9 16,-20 26,-33 10,-12 18,-22 25,-30 10,-9 19,-17 29,-22 10,-5 20,-8 31,-8 16,0 30,4 41,14 12,9 20,21 27,37 6,16 11,35 14,57 3,22 5,46 6,73l81 0z"
   id="glyph16" />
   <glyph
   unicode=")"
   horiz-adv-x="382"
   d="M330 279c0,-100 -16,-189 -48,-265 -33,-76 -77,-148 -134,-215l-112 0 0 5c25,22 50,50 75,83 26,32 48,68 66,108 21,42 36,86 48,133 12,47 18,97 18,151 0,54 -6,105 -18,153 -12,48 -28,92 -48,132 -19,40 -42,77 -67,109 -25,32 -49,60 -74,82l0 5 112 0c56,-67 101,-139 133,-215 33,-76 49,-164 49,-266z"
   id="glyph17" />
   <glyph
   unicode=":"
   horiz-adv-x="353"
   d="M236 406l-117 0 0 139 117 0 0 -139zm0 -406l-117 0 0 139 117 0 0 -139z"
   id="glyph18" />
   <glyph
   unicode="−"
   horiz-adv-x="727"
   d="M639 279l-550 0 0 78 550 0 0 -78z"
   id="glyph19" />
   <glyph
   unicode="#"
   horiz-adv-x="727"
   d="M659 455l-143 0 -45 -184 131 0 0 -66 -148 0 -51 -205 -63 0 51 205 -133 0 -51 -205 -63 0 51 205 -126 0 0 66 143 0 45 184 -131 0 0 66 148 0 51 206 63 0 -52 -206 134 0 51 206 63 0 -51 -206 126 0 0 -66zm-204 1l-136 0 -45 -186 135 0 46 186z"
   id="glyph20" />
   <glyph
   unicode="E"
   horiz-adv-x="561"
   d="M74 0l0 727 455 0 0 -86 -358 0 0 -199 334 0 0 -86 -334 0 0 -270 358 0 0 -86 -455 0z"
   id="glyph21" />
   <glyph
   unicode="g"
   horiz-adv-x="552"
   d="M395 148l0 299c-23,11 -44,18 -64,23 -19,5 -38,7 -58,7 -46,0 -83,-17 -110,-51 -27,-34 -40,-83 -40,-147 0,-60 10,-106 31,-138 20,-31 53,-47 99,-47 24,0 48,5 74,14 25,9 48,23 68,40zm-310 -235c6,-3 15,-6 27,-10 12,-5 26,-8 42,-12 17,-4 32,-8 47,-10 14,-3 30,-4 47,-4 28,0 52,4 72,11 20,7 35,18 46,31 11,13 18,29 23,46 4,17 6,37 6,59l0 48c-25,-21 -49,-37 -73,-48 -24,-10 -54,-15 -90,-15 -62,0 -112,23 -149,69 -37,46 -55,113 -55,199 0,46 6,86 19,121 13,35 30,64 52,89 20,23 45,41 72,54 29,13 58,19 88,19 28,0 53,-3 74,-10 20,-7 41,-16 62,-28l5 23 87 0 0 -483c0,-92 -20,-160 -61,-203 -40,-43 -102,-65 -186,-65 -27,0 -54,2 -82,6 -28,5 -54,10 -78,17l0 96 5 0z"
   id="glyph22" />
   <glyph
   unicode="4"
   horiz-adv-x="545"
   d="M521 250l-86 0 0 -250 -94 0 0 250 -321 0 0 103 325 374 90 0 0 -399 86 0 0 -78zm-180 78l0 283 -244 -283 244 0z"
   id="glyph23" />
   <glyph
   unicode="S"
   horiz-adv-x="557"
   d="M276 -13c-52,0 -97,6 -134,16 -37,11 -72,25 -104,41l0 121 7 0c32,-30 68,-53 108,-69 40,-17 79,-25 116,-25 53,0 94,11 121,33 27,23 41,52 41,88 0,29 -7,53 -21,71 -15,18 -37,31 -68,40 -23,7 -43,12 -62,16 -18,5 -42,10 -70,17 -25,7 -47,15 -67,25 -20,10 -37,23 -53,40 -15,16 -26,34 -35,56 -8,22 -12,47 -12,75 0,59 23,108 69,148 46,40 104,60 176,60 40,0 79,-4 115,-12 36,-8 70,-20 101,-35l0 -116 -7 0c-23,21 -53,40 -89,55 -36,16 -74,24 -114,24 -45,0 -81,-10 -108,-31 -28,-21 -42,-49 -42,-83 0,-31 8,-55 24,-74 16,-18 40,-31 71,-39 20,-6 45,-12 75,-19 29,-7 54,-14 73,-20 51,-15 87,-38 110,-69 23,-31 35,-69 35,-114 0,-28 -6,-56 -17,-84 -12,-27 -28,-51 -49,-70 -23,-21 -50,-38 -79,-49 -30,-11 -66,-17 -111,-17z"
   id="glyph24" />
   <glyph
   unicode="d"
   horiz-adv-x="552"
   d="M487 0l-92 0 0 56c-14,-12 -27,-22 -37,-30 -11,-8 -23,-15 -37,-22 -13,-6 -27,-10 -41,-14 -14,-3 -30,-5 -49,-5 -29,0 -57,6 -82,18 -26,13 -47,31 -65,55 -18,24 -32,53 -41,89 -10,35 -15,75 -15,121 0,48 6,89 19,125 12,34 29,65 51,91 20,24 44,42 72,56 29,13 58,20 89,20 28,0 51,-3 72,-9 20,-6 41,-15 64,-28l0 237 92 0 0 -760zm-92 133l0 314c-23,10 -43,18 -62,22 -18,4 -37,6 -59,6 -47,0 -84,-18 -111,-53 -27,-35 -40,-86 -40,-152 0,-64 10,-113 31,-147 20,-34 53,-51 99,-51 24,0 48,6 73,16 24,11 47,26 69,45z"
   id="glyph25" />
   <glyph
   unicode="1"
   horiz-adv-x="545"
   d="M465 0l-355 0 0 74 132 0 0 488 -132 0 0 66c50,0 87,7 110,21 24,14 37,42 40,81l76 0 0 -656 129 0 0 -74z"
   id="glyph26" />
   <glyph
   unicode="r"
   horiz-adv-x="360"
   d="M355 446l-5 0c-7,2 -14,3 -22,3 -7,1 -16,1 -27,1 -25,0 -49,-5 -74,-16 -24,-11 -47,-27 -69,-48l0 -386 -92 0 0 545 92 0 0 -81c34,30 63,50 88,63 24,12 48,18 72,18 9,0 16,0 21,-1 5,0 10,-1 16,-2l0 -96z"
   id="glyph27" />
   <glyph
   unicode="a"
   horiz-adv-x="524"
   d="M370 135l0 150c-22,-2 -49,-5 -82,-8 -34,-3 -60,-8 -81,-14 -24,-8 -44,-19 -60,-35 -16,-15 -24,-36 -24,-64 0,-31 9,-54 26,-70 18,-16 43,-24 77,-24 29,0 55,6 78,19 24,12 46,27 66,46zm0 -77c-7,-5 -18,-13 -30,-23 -13,-10 -25,-18 -36,-24 -16,-8 -32,-15 -47,-19 -15,-5 -37,-7 -64,-7 -22,0 -43,4 -64,13 -20,8 -38,20 -53,35 -14,15 -26,34 -35,56 -9,22 -13,45 -13,69 0,38 8,70 24,97 16,26 41,47 75,63 31,14 67,24 108,29 42,5 87,9 135,12l0 18c0,22 -3,39 -10,52 -6,14 -15,24 -27,31 -12,8 -26,13 -43,15 -17,3 -34,4 -52,4 -21,0 -46,-3 -75,-10 -28,-6 -57,-16 -86,-28l-5 0 0 93c17,5 41,10 73,16 32,6 63,9 94,9 37,0 69,-3 94,-9 26,-6 49,-16 70,-31 20,-15 35,-35 44,-59 10,-24 15,-52 15,-87l0 -373 -92 0 0 58z"
   id="glyph28" />
   <glyph
   unicode="."
   horiz-adv-x="302"
   d="M210 0l-117 0 0 139 117 0 0 -139z"
   id="glyph29" />
   <glyph
   unicode="+"
   horiz-adv-x="727"
   d="M651 279l-247 0 0 -247 -81 0 0 247 -247 0 0 78 247 0 0 247 81 0 0 -247 247 0 0 -78z"
   id="glyph30" />
   <glyph
   unicode="o"
   horiz-adv-x="543"
   d="M515 272c0,-92 -22,-162 -66,-212 -45,-50 -104,-75 -177,-75 -76,0 -136,26 -179,77 -43,52 -65,122 -65,210 0,91 22,162 67,212 45,51 104,76 177,76 73,0 132,-25 177,-75 44,-51 66,-121 66,-213zm-95 0c0,70 -13,123 -39,157 -25,34 -62,51 -109,51 -48,0 -85,-17 -110,-51 -26,-34 -39,-87 -39,-157 0,-68 13,-119 39,-154 25,-36 62,-53 110,-53 47,0 83,17 109,52 26,34 39,86 39,155z"
   id="glyph31" />
   <glyph
   unicode="("
   horiz-adv-x="382"
   d="M347 -201l-112 0c-57,67 -101,139 -133,214 -33,75 -49,164 -49,266 0,101 16,189 48,265 32,77 77,149 134,216l112 0 0 -5c-26,-24 -51,-51 -75,-82 -24,-31 -46,-67 -66,-109 -20,-40 -36,-84 -48,-132 -12,-48 -18,-99 -18,-153 0,-55 6,-106 18,-152 11,-46 28,-91 48,-132 19,-40 41,-76 66,-109 25,-32 50,-60 75,-82l0 -5z"
   id="glyph32" />
   <glyph
   unicode="l"
   horiz-adv-x="228"
   d="M161 0l-92 0 0 760 92 0 0 -760z"
   id="glyph33" />
   <glyph
   unicode="z"
   horiz-adv-x="444"
   d="M424 0l-400 0 0 68 285 401 -273 0 0 76 383 0 0 -66 -286 -402 291 0 0 -77z"
   id="glyph34" />
   <glyph
   unicode="i"
   horiz-adv-x="228"
   d="M161 0l-92 0 0 545 92 0 0 -545zm7 637l-105 0 0 95 105 0 0 -95z"
   id="glyph35" />
  </font>
</defs>
</svg>
